#TITLE:Pandora;
#SUBTITLE:;
#ARTIST:dj Taka FEAT. Tomomi;
#TITLETRANSLIT:;
#SUBTITLETRANSLIT:;
#ARTISTTRANSLIT:;
#CREDIT:;
#BANNER:pandora.png;
#BACKGROUND:pandora-bg.png;
#LYRICSPATH:;
#CDTITLE:;
#MUSIC:[beatmania IIDX 10th style]dj TAKA feat.Tomomi-pandora.mp3;
#OFFSET:0.150;
#SAMPLESTART:40.568;
#SAMPLELENGTH:12.000;
#SELECTABLE:YES;
#BPMS:0.000=147.900;
#STOPS:;
#BGCHANGES:;
// cache tags:
#FIRSTBEAT:1.000;
#LASTBEAT:288.000;
#SONGFILENAME:Songs/Music V.I.P ^_^/Pandora [Reach]/winter.sm;
#HASMUSIC:1;
#HASBANNER:1;
#MUSICLENGTH:122.415;
// end cache tags

//---------------dance-single - ----------------
#NOTES:
     dance-single:
     :
     Hard:
     11:
     1.000,1.000,0.735,0.188,1.000,755.000,90.000,23.000,0.000,1.000:  // measure 1
0000
0000
0001
0100
0010
0100
2001
0000
,  // measure 2
0000
3001
0000
0010
0000
0100
0000
1000
,  // measure 3
0000
0001
0010
0100
1000
0020
0000
0000
,  // measure 4
1030
0000
0001
0001
0001
0010
0200
0000
,  // measure 5
0000
0310
0000
0000
0000
0000
1002
0000
,  // measure 6
0000
1003
0000
0100
0000
0001
0000
0100
,  // measure 7
2000
0000
0000
0000
3001
0000
0000
0000
0100
0000
0000
0000
1000
0001
1000
0001
,  // measure 8
0000
0001
1000
0100
1000
0010
1000
0001
0000
0010
0100
0010
0001
0010
0100
0010
,  // measure 9
0000
0010
0100
1000
0010
1000
0001
0010
0000
0001
0100
0010
1100
0001
1000
0100
,  // measure 10
0010
0001
0100
0010
1000
0100
0010
0001
0010
0001
0100
0001
1000
0100
0010
0001
,  // measure 11
0010
0100
1000
0100
0010
0001
0010
0001
0010
0100
1000
0100
1000
0100
0010
0001
,  // measure 12
0010
0100
1000
0100
0010
0100
1000
0001
0010
0100
0010
0001
0010
0001
0010
0100
,  // measure 13
0010
0100
0010
0100
1000
0100
1000
0100
1000
0000
0110
0000
1001
0100
0010
0100
,  // measure 14
0001
0100
0010
0100
0001
0100
0010
0100
0001
0010
0100
1000
0010
0100
0001
0010
,  // measure 15
0100
1000
0001
0010
0100
1000
0010
0100
0010
0100
1001
0000
0110
0001
0010
0100
,  // measure 16
1000
0100
1000
0001
0010
0100
1000
0100
1000
0001
0010
0100
1000
0001
1000
0001
,  // measure 17
1000
0100
0010
0001
1000
0001
1000
0001
0010
0100
1000
0100
0011
0000
1000
0000
,  // measure 18
0010
0100
0001
1000
0010
0001
2020
3030
,  // measure 19
0000
0000
2002
3003
0000
0000
0110
0110
,  // measure 20
0110
0000
0000
0000
0110
0000
0000
0000
1001
0000
0110
0000
1001
0000
0110
0000
1001
0000
0110
0000
1001
0000
0110
0000
1000
0001
1000
0001
1000
0001
1000
0001
,  // measure 21
1000
0001
1000
0001
1000
0001
1000
0001
1000
0001
1000
0001
1000
0001
1000
0001
1000
0001
1000
0001
1000
0001
1000
0001
2000
0000
0000
0000
0000
0000
0000
0000
,  // measure 22
0000
0000
0000
0000
3000
0000
0000
0000
0000
0000
0000
0000
0001
0010
0100
1000
,  // measure 23
0001
0100
0010
1000
0001
0010
0100
1000
0001
0100
0010
1000
0011
0000
0100
0000
,  // measure 24
1000
0000
0001
0100
0001
0100
0010
1000
0010
0000
0000
0000
0011
0000
1100
0000
,  // measure 25
0011
0000
0100
1000
0100
1000
0010
0100
0001
0000
0000
0000
1001
0000
0110
0000
,  // measure 26
1001
0000
0010
0100
0010
1000
0010
0100
0010
0100
1000
0100
0010
0001
0010
0100
,  // measure 27
1000
0100
0010
0001
1000
0001
0010
0100
1000
0100
0010
0001
1000
0001
0010
0100
,  // measure 28
0010
0001
0010
0100
1000
0100
0010
0100
1000
0100
0010
0001
0010
0100
1000
0100
,  // measure 29
0010
0001
0010
0100
0010
0001
0010
0100
0010
0001
1000
0000
1001
0000
0100
0010
,  // measure 30
0100
0010
0100
0000
1001
0000
0010
0100
0010
0100
0010
0000
1001
0000
0001
0010
,  // measure 31
0100
1000
0001
1000
0010
0100
0001
0010
0100
1000
0001
1000
0020
0000
0000
0000
,  // measure 32
0030
0000
0001
0010
0200
0000
0000
0000
,  // measure 33
1300
0000
1001
0110
0000
1001
0000
0000
,  // measure 34
0000
0000
0100
0010
0001
0020
0000
0000
,  // measure 35
0130
0000
1000
0002
0000
1003
0000
0000
,  // measure 36
0000
0000
2001
0001
3000
0001
0000
0000
,  // measure 37
0010
0100
1000
0002
,  // measure 38
0000
0000
0000
1003
0000
0010
2002
0000
,  // measure 39
3013
0000
0100
0000
1000
0000
1001
0010
,  // measure 40
0001
0000
1000
0010
0100
0001
0010
0001
1000
0000
0000
0000
1001
0000
1100
0000
,  // measure 41
1001
0000
0001
0010
0001
1000
0100
1000
0001
0000
0000
0000
1001
0000
0110
0000
,  // measure 42
1001
0000
0001
0010
0100
0010
0001
1000
0001
0000
0000
0000
1100
0000
0011
0000
,  // measure 43
1100
0000
0010
0100
0001
0100
0010
0100
0001
0000
0000
0000
1001
0000
0000
0000
,  // measure 44
0101
0000
1000
0001
1000
0001
1000
0010
0100
0000
0000
0000
1001
0000
0000
0000
,  // measure 45
0011
0000
1000
0100
0010
0001
0100
0001
1000
0000
0000
0000
1001
0000
0000
0000
,  // measure 46
0110
1001
0110
0011
,  // measure 47
1100
0000
1001
0011
0110
1100
0220
0000
,  // measure 48
0000
0000
0330
0001
0010
0100
0000
0000
,  // measure 49
0100
1000
0000
1001
0011
0110
1000
0010
,  // measure 50
0100
0001
0010
1100
0010
0101
0010
1001
,  // measure 51
0110
2001
0000
3001
0010
0000
0100
0000
,  // measure 52
0100
0010
0000
1001
0000
0000
1010
0000
,  // measure 53
0000
0000
1010
0000
0000
0000
0001
0010
,  // measure 54
0100
0000
1000
0000
0100
0000
0010
0000
0001
0000
0010
0000
0010
0100
1000
0010
,  // measure 55
0100
0001
0010
0100
1000
0010
0100
0001
0010
0100
1000
0000
1001
0000
0001
0010
,  // measure 56
0001
0010
0001
0010
0001
1000
0001
1000
0001
1000
0001
1000
0010
1000
0010
1000
,  // measure 57
0010
1000
0010
1000
0100
1000
0100
1000
0100
1000
0100
0000
1001
0000
0010
0100
,  // measure 58
0010
0100
0010
0100
0010
0100
0001
0100
0001
0100
0001
0100
0101
0000
0010
1000
,  // measure 59
0010
1000
0010
1000
0010
1000
0001
1000
0001
1000
0001
1000
1001
0000
0001
0010
,  // measure 60
0100
1000
0100
0010
0001
1000
0010
0100
0001
1000
0010
0100
1001
0000
0100
0001
,  // measure 61
0100
0000
0010
0000
0100
0000
0010
0000
1001
0000
0000
0000
0000
0000
0000
0000
1001
0000
0000
0000
0000
0000
0000
0000
0010
1000
0010
1000
0010
1000
0010
1000
,  // measure 62
0010
1000
0010
1000
0010
1000
0010
1000
0010
1000
0010
1000
0010
1000
0010
1000
0010
1000
0010
1000
0010
1000
0010
1000
0010
0000
1000
0000
0010
0000
0000
0000
,  // measure 63
0001
0000
0000
1000
0000
0000
0010
0000
0000
0100
0000
0000
0001
0000
0010
0000
0100
0000
1000
0000
0001
0000
0010
0000
0100
0000
1000
0000
0001
0000
0010
0000
0100
0000
1000
0000
0011
0000
0000
0000
0000
0000
0110
0000
0000
0000
0000
0000
,  // measure 64
1001
0000
0001
0100
0001
0100
0010
1000
0010
0000
0000
0000
1001
0000
0110
0000
,  // measure 65
0101
0000
1000
0100
1000
0010
1000
0001
1000
0000
0000
0000
0011
0000
0110
0000
,  // measure 66
1100
0000
0001
0010
0001
1000
0001
0010
0100
1000
0100
0010
0001
0010
0100
1000
,  // measure 67
0100
0010
0100
1000
0010
0100
0010
1000
0010
0100
0010
1000
0100
0010
0001
1000
,  // measure 68
0001
1000
0001
0010
0100
1000
0001
1000
0001
1000
0100
0010
0001
1000
0001
0100
,  // measure 69
0010
0100
0001
1000
0001
0100
0010
0100
1000
0010
1000
0100
0001
0100
0010
1000
,  // measure 70
0010
0100
0001
0100
0010
1000
0010
0100
0010
0000
0000
0000
0001
0010
0100
1000
,  // measure 71
0001
1000
0010
0100
0001
0010
0100
1000
0001
0100
0010
0100
2002
0000
0000
0000
,  // measure 72
0000
0000
0000
0000
,  // measure 73
3003
0000
0000
0000
;
